Home > Quicktime Error > Quicktime Error This Is Not A Movie File

Quicktime Error This Is Not A Movie File

Contents

On the other hand, Mac version of this tool can be employed on Mac machines running with Snow Leopard, Mountain Lion, Lion and Mavericks OS X versions. Set the hard drive on a shelf and haven't looked at it for a month or so. Not sure what went wrong. In the compression settings I selected MPEG4, then shot the video. http://caribtechsxm.com/quicktime-error/quicktime-error-this-is-not-a-movie-file-avi.php

I can't think of any recent time when the drive was unplugged accidentally or anything like that. I'm only one of the helpers here, and they're a great bunch willing to help to the end! I used the same command on a set of images generated from an iSight time lapse, but in this case the above images are from a digital camera. under Windows XP (works fine with with smaller MP3 files) So I took the MP3 file to another Windows XP PC with an older Quicktime Player version 7.3, and it worked

Flip4mac

Which movie will you best remember Bernie Mac for? The movie's file format isn't recognized. Reply With Quote Quick Navigation Movies and Video Top Site Areas Settings Private Messages Subscriptions Who's Online Search Forums Forums Home Forums Community Information Center News and Community Announcements Community Polls Applying a correction to last frame display time usually fixes the problem. -2015 invalidTime Invalid TimeQuickTime reports invalid duration when first frame time doesn't match timeline specified by track edit list.

  1. rafael http://www.nagavideo.comReturn to posts indexReport Post•Re: General Error and Non-Playable Quicktime Filesby Josh Aderhold on Mar 25, 2010 at 7:12:33 amThanks for the responses.
  2. A scratched DVD, a hard disk or memory card with bad sectors will give I/O errors.
  3. My quicktime doesn't work for anything much so I usually use vlc...
  4. I apparently have one of the few "unsolveable" situations.
  5. THAT indicates it is faulty & fake Reply ↓ B.
  6. can anyone help me? 04-20-2010 01:03 PMvinu Feedback Page 1 of 31 2 3 next › last » Related Post Your Answer TopicYour replyYour name or log inVerify you're humanBy submitting
  7. Reply With Quote 07-22-2009,04:33 PM #9 vansmith View Profile View Forum Posts Member Since Oct 19, 2008 Location Toronto Posts 19,782 Specs:2012 13" MBP (2.5 i5, 8GB) Have you tried the
  8. Apple provides QuickTime Player X in OS X, but Apple's older QuickTime 7 has some additional capabilities that did not make it into the latest QuickTime Player version.
  9. I discovered the problem through Final Cut, then realized the problem was affecting the actual quicktimes.

I recommend checking it out before formatting your computer! 01-16-2010 07:44 AMJoshHarkins20101 posts Feedback Thanks dude... Try different export format, bit rate, or resolution. -108 MemFullErr Memory FullIf you close documents and applications or reboot to free memory, this error message should no longer show up. -2000 Helpful (0) Reply options Link to this post by pomaus, pomaus Apr 19, 2009 10:04 PM in response to BDAqua Level 1 (0 points) Apr 19, 2009 10:04 PM in response Most of the time, such files can be recovered using movie repair techniques, because video and audio media is still present inside the file.

I have tried the video in avi., mov., and mp4., format but every time she tries to open it (as an attachment in an e-mail) she gets an error message reading I clocked the recent announcement, but have not yet had the need to take a detailed look at it, so I can't comment further. It has seemingly unlimited ways to convert and tweak video into the format of your choice. the working movie: Input #0, image2, from '*.JPG': Duration: 00:01:23.72, start: 0.000000, bitrate: N/A Stream #0:0: Video: mjpeg, yuvj420p(pc), 640x480 [SAR 1:1 DAR 4:3], 25 fps, 25 tbr, 25 tbn, 25

Somehow the corrupt quicktime files are not only mixing up blocks of information, they're swapping between each other. I'm also wondering whether it's possible to unscramble the data if it's been saved as the wrong type of file. Did you change this to MP4? The file may be damaged or may not be a movie file that is compatible with QuickTime Player.

Vlc

Windows oriented software version can be used on Windows 8, Windows 7, Windows XP, Windows Vista, Windows Server 2003 and 2008 operating systems. So I know ffmpeg isn't at fault here. Flip4mac The files are "XviD asd" .avi files and i've tried getting all kinds of codecs, i have perian, divX, Xvid, 3ivx; quicktime pro 7.6, flip4Mac, vlc, some ffmpegX application that doesn't Often videos you encounter might be in MKV format, and you can use Handbrake to convert them to M4V so they can be easily dragged into a Keynote or other document,

Ideas? http://caribtechsxm.com/quicktime-error/quicktime-error-39-end-file.php Especially one that won't open? Just a single tap on the preset that matches the device(s) you want to watch the resulting video file with, will give you the appropriate conversion settings. I have a PC and I am trying to e-mail my friend a video who has a MAC.

MacBook Pro Intel Core 2 Duo 2.6GHz L2 Cache: 6MB 4GB Memory Bus Speed 800MHzReturn to posts indexReport Post •Re: General Error and Non-Playable Quicktime Filesby Josh Olenslager on Mar 25, I doubt that this will solve the problem but it can't hurt for future reference. Hat off to you my friend...Now to the next challenge. get redirected here Then download any transcodal translator.

Thanks. Trending POLL: When was the last time you cleaned your computer screen? 53 answers How much you pay for the internet service? 16 answers Is there a portable computer? 15 answers Later I realized it has affected half of my final quicktime DVD masters.

Same issue I had and now I am able to open..

for the working one: Output #0, mp4, to 'movie.mp4': Metadata: encoder : Lavf55.19.104 Stream #0:0: Video: h264 (libx264) ([33][0][0][0] / 0x0021), yuvj420p, 640x480 [SAR 1:1 DAR 4:3], q=-1--1, 12800 tbn, 25 It can fix CRC error, Codec error, audio-video sync error, header corruption and other errors displayed by MOV video file with ease. If the files are corrupted, will a program like DiskWarrior or TechTools fix the files? 100 bucks is a small price to pay to ensure all my files are working. Any problem while QuickTime tries to read or write data will end with a file error. -34 dskFulErr Disk Full ErrorQuickTime needs more disk space to complete operation. -36 ioErr I/O

Just purchased DiskWarrior, problem NOT solved. Opened up my Capture Scratch, and whadya know, my quicktime files wont play. Thanks 03-09-2009 09:56 PMmissy roboto Feedback Thanks for all that work, I was pullin my hair our, whats left anyway, trying to find out how to fix this.... useful reference No luck whatsoever.

I'm very sorry that haven't work for you. Open Menu Close Menu Apple Shopping Bag Apple Mac iPad iPhone Watch TV Music Support Search apple.com Shopping Bag : CommunitiesContact SupportSign inContentPeopleSearch Support CommunitiesMac OS & System SoftwareMac OS X I don't understand the 90/10 rule? thank you so much:) Reply ↓ Alfatih Ali October 13, 2016 at 7:56 am Another player like VLC works exceptionally well.

MOVING TO NEW FORUM link https://telestreamforum.forumbee.com This forum will become READ ONLY on Wednesday May 25, 2016 ⌂HomeMailSearchNewsSportsFinanceCelebrityWeatherAnswersFlickrMobileMore⋁PoliticsMoviesMusicTVGroupsStyleBeautyTechShopping Yahoo Answers 👤 Sign in ✉ Mail ⚙ Help Account Info Help Suggestions I was touching up one of my sequences when I suddenly came to a clip that was all white. Baking at a lower temperature than the recipe calls for Why do you use Bitcoin addresses instead of public keys? Various reasons that cause QuickTime error the movie’s file format isn’t recognized are like this: Codec Issue: Each movie file requires particular Codec to be played in QuickTime player.

Again, a small price to pay, but I'd much rather use Diskwarrior or TechTools, one because it's cheaper and two because the program will work for any future problems I run New and Noteworthy Articles Dos and Donts for managing data on external hard drives May 18, 2016 How to manage inactivated e-mail accounts in OS X May 8, 2016 How to so Unless you convert it to a Mac format you can't view it. You can only upload photos smaller than 5 MB.

Yodot Mac File Recovery Simple and easy to use undelete application for Mac, the software efficiently recovers files emptied from Trash, deleted from Desktop or from any user folder on Macintosh